annuarioaudio
» » I Start Counting / Fortran 5 / Komputer - Konnecting...

I Start Counting / Fortran 5 / Komputer - Konnecting... flac album

I Start Counting / Fortran 5 / Komputer - Konnecting... flac album
Title:
Konnecting...
Performer:
Style:
Electro, Synth-pop, Experimental
Released:
FLAC album size:
1485 mb
Other formats:
VQF VOC WMA MP4 DTS AC3 RA
Genre:
Rating:
4.1 ✪

1, 8 & 10 taken from the I Start Counting album 'My Translucent Hands' 2 & 12 taken from the I Start Counting album 'Fused' 3, 7 & 13 taken from the Fortran 5 album 'Blues' 4, 14 & 15 taken from the Fortran 5 album 'Bad Head Park' 5 & 6 taken from the Komputer album 'World Of Tomorrow' 9 & 11 taken from the Komputer album 'Synthetik'.

3. Heart On the Line (2011 Remaster).

I Start Counting - Million Headed Monster. wav" WAVE INDEX 01 00:00:00 TRACK 03 AUDIO TITLE "Heart on the Line" PERFORMER "Fortran 5" ISRC GBR8R1100082 INDEX 00 03:50:31 FILE "03. Fortran 5 - Heart on the Line. I Start Counting - Lose Hi. av" WAVE INDEX 01 00:00:00 TRACK 09 AUDIO TITLE "Headphones and Ringtones" PERFORMER "Komputer" ISRC GBR8R1100088 INDEX 00 03:33:24 FILE "09. Komputer - Headphones and Ringtones. wav" WAVE INDEX 01 00:00:00 TRACK 10 AUDIO TITLE "Still Smiling" PERFORMER "I Start Counting" ISRC GBR8R1100089 INDEX 00 03:59:67 FILE "10.

Listen to music from I Start Counting like Letters To A Friend, Birmingham & more. Find the latest tracks, albums, and images from I Start Counting. I Start Counting were David Baker and Simon Leonard. They later went on to record as Fortran 5 and then as Komputer.

Deluxe (B Sides and Rarities). Besteciler: David Baker - Simon Leonard. Midnight Trip (N29 Mix). Deluxe (B Sides and Rarities). 22. Love Baby (Charlie Endell Mix).

Includes FREE MP3 version of this album. 2011 collection from the Electronic duo of Simon Leonard and David Baker, who have collaborated since the '80s under the band names I Start Counting, Fortran 5 and Komputer. 7 years ago 7 years ago. Electronic. I Start Counting, Fortran 5, Komputer". i start counting million headed monster komputer fortran 5. Show more.

Fortran 5, I Start Counting, Komputer. AIP, Mute cdmutel 20. CD.

Tracklist Hide Credits

1 I Start Counting Letters To A Friend 3:52
2 I Start Counting Million Headed Monster 3:53
3 Fortran 5 Heart On The Line
Vocals – Jocelyn West, Katharine Blake
3:51
4 Fortran 5 Time To Dream
Other [Sample From] – John BarryVocals – Jackie Sheridan
4:30
5 Komputer Valentina 3:39
6 Komputer Looking Down On London 3:57
7 Fortran 5 Love Baby
Vocals – Lucy
4:35
8 I Start Counting Lose Him 3:35
9 Komputer Headphones And Ringtones 4:01
10 I Start Counting Still Smiling 3:48
11 Komputer Like A Bird 4:10
12 I Start Counting Empty Room 4:25
13 Fortran 5 Look To The Future
Vocals – Larry Graham
3:43
14 Fortran 5 Persian Blues
Vocals – Neil Arthur
3:58
15 Fortran 5 Layla (Derek Sings Derek)
Vocals – Derek Nimmo
3:36

Credits

  • Artwork By – Louise Downer
  • Compiled By – David Baker , Paul A. Taylor*, Simon Leonard
  • Mastered By – Stefan Betke
  • Mixed By – Dave Lee (tracks: 13), Thrash (tracks: 7), Vince Clarke (tracks: 3)
  • Producer – Colin Faver (tracks: 7), Daniel Miller (tracks: 1,8,10), Dave Powell (tracks: 8), Deptford Dave (tracks: 14-15), Fortran 5 (tracks: 3-4,7,13-15), Greg Hunter (tracks: 4), I Start Counting (tracks: 1-2,8,12), Komputer (tracks: 5-6,9,11), Paul Kendall (tracks: 2,12), Thrash (tracks: 13)
  • Producer [Additional] – Dave Lee (tracks: 13), Gary Hellman (tracks: 13), Dave Luongo* (tracks: 13)
  • Written-By – E. Clapton* (tracks: 15), Fortran 5 (tracks: 3-4,7,13-14), I Start Counting (tracks: 1-2,8,10,12), J. Gordon* (tracks: 15), John Barry (tracks: 4), Komputer (tracks: 5-6,9,11)

Notes

1, 8 & 10 taken from the I Start Counting album 'My Translucent Hands'
2 & 12 taken from the I Start Counting album 'Fused'
3, 7 & 13 taken from the Fortran 5 album 'Blues'
4, 14 & 15 taken from the Fortran 5 album 'Bad Head Park'
5 & 6 taken from the Komputer album 'World Of Tomorrow'
9 & 11 taken from the Komputer album 'Synthetik'

Duration taken from CD.

Barcode and Other Identifiers

  • Barcode: 5099969539626