annuarioaudio
» » Maja Vučić - Moja Pjesma Zna

Maja Vučić - Moja Pjesma Zna flac album

Maja Vučić - Moja Pjesma Zna flac album
Title:
Moja Pjesma Zna
Performer:
Maja Vučić
Released:
FLAC album size:
1758 mb
Other formats:
DMF VOC AHX AU AUD MP3 APE
Genre:
Rating:
4.3 ✪

Listen to Moja Pjesma Zna from Maja Vucic's Lice Koje Znas for free, and see the artwork, lyrics and similar artists.

LyricsMoja Pjesma Zna. Maja Vucic. Download now. English.

Moja pjesma zna (remix). Moja pjesma zna (remix).

Maja Vučić) 03. Netko bdije nada mnom, Someone to Watch Over Me 04. Pjesma je bila život moj 05. Slavit ćemo sami (feat. wav" WAVE TRACK 02 AUDIO TITLE "Za mene je sreca (feat. Maja Vucic)" PERFORMER "Gabi Novak" FLAGS DCP INDEX 00 00:00:00 INDEX 01 00:02:00 FILE "03. Netko bdije nada mnom. wav" WAVE TRACK 03 AUDIO TITLE "Netko bdije nada mnom" PERFORMER "Gabi Novak" FLAGS DCP INDEX 00 00:00:00 INDEX 01 00:02:00 FILE "04. Pjesma je bila zivot mo. av" WAVE TRACK 04 AUDIO TITLE "Pjesma je bila zivot moj" PERFORMER "Gabi Novak" FLAGS DCP INDEX 00 00:00:00 INDEX 01 00:02:00 FILE "05.

Lice Koje Znas, 2006. Moja Pjesma Zna, 04:29. Obrati Paznju Na Posljednju Stvar, 03:12. Lice Koje Znas, 04:31. Kako Cu Ikad Vise Reci Da?, 04:31.

Moja Pjesma Zna. 3. Obrati Paznju Na Posljednju Stvar.

Tracklist

1 Moja Pjesma Zna 4:29
2 Moja Pjesma Zna (Remix) 3:53

Notes

Official CDr release.