annuarioaudio
» » Rinôçérôse - Music Kills Me

Rinôçérôse - Music Kills Me flac album

Rinôçérôse - Music Kills Me flac album
Title:
Music Kills Me
Performer:
Style:
House
Released:
Country:
FLAC album size:
1130 mb
Other formats:
MP2 AC3 AUD VQF TTA VOC MPC
Genre:
Rating:
4.8 ✪

Music Kills Me Tracklist. About Music Kills Me. Music Kills Me Q&A.

Listen to Rinôçérôse Radio featuring songs from Music Kills Me free online. Слушать бесплатное интернет-радио, спорт, музыку, новости, разговорное и подкасты. События в прямом эфире, трансляции игр NFL, MLB, NBA, NHL, университетских команд и матчи Премьер-лиги. CNN, MSNBC, Fox News, ESPN, BBC, NPR.

Music Kills Me is a 2002 album by Rinôçérôse. Music Kills Me appears in the following lists: 2002 albums. 10 lists, 2,590 members.

Music Kills Me (2002).

Rinôçérôse (stylized as rinôçérôse or rinôçérôse ) is a French band founded by Jean-Philippe Freu and Patrice Carrié that mixes rock music and electronic dance music. The duo of musicians also work as psychologists, calling themselves, "Psychologists by day, musicians by night". They compose music in English, French, and German. They are based in Montpellier (Occitanie).

Rinocerose - Music Kills Me Жанр: House, Downtempo Год выпуска диска: 2002 Производитель диска: V2 Records, France Аудио кодек: FLAC Тип рипа: tracks+. Pre-gap length 0:00:02. 00 Peak level 9. % Track quality 10. % Test CRC 317B6E93 Copy CRC 317B6E93 Copy OK Track 2 Filename 02 - Music Kills M. av Peak level 9. % Track quality 9. % Test CRC 09458D9C Copy CRC 09458D9C Copy OK Track 3. Filename 03 - It's Time to Go No. % Test CRC A132EA8B Copy CRC A132EA8B Copy OK Track 4 Filename 04 - Lost Love. wav Pre-gap length 0:00:00. 70 Peak level 9. % Test CRC A56AA9A3.

Tracklist

Music Kills Me (The Rapture Version)
Music Kills Me (Radio Edit)
Janie Jones (The Glass Version)
Janie Jones (Dub)

Versions

Category Artist Title (Format) Label Category Country Year
VVR5024456 Rinôçérôse Music Kills Me ‎(12") V2 VVR5024456 France 2003
VVR5022073P Rinôçérôse Music Kills Me ‎(CD, Single, Enh, Promo, Car) V2 VVR5022073P France 2002
VVR5024456 Rinôçérôse Music Kills Me ‎(12", W/Lbl) V2 VVR5024456 France 2003