annuarioaudio
» » Nat Adderley Quintet featuring Antonio Hart - Good Company

Nat Adderley Quintet featuring Antonio Hart - Good Company flac album

Nat Adderley Quintet featuring Antonio Hart - Good Company flac album
Title:
Good Company
Performer:
Nat Adderley Quintet
Released:
FLAC album size:
1996 mb
Other formats:
MOD AU FLAC AHX MP1 AAC MPC
Genre:
Rating:
4.9 ✪

Nat Adderley Quintet Featuring Vincent Herring - Workin' (Album). Timeless Records (3). Netherlands. Nat Adderley Quintet featuring Antonio Hart. Nat Adderley Quintet featuring Antonio Hart - Good Company ‎(CD, Album). Challenge Records (3). JAZZ CHR 70009.

Nat Adderley Quintet featuring Antonio Hart - Good Company: CD, Album For Sale. Cd Cover Design, My Romance, Sell Items, Jazz. Nat Adderley - Sayin' Somethin': CD, Album, RE, RM, Dig For Sale. Walls Of Jericho, Sell Items, Jazz.

The Old Country is an album by Nat Adderley's Quintet recorded in 1990 and originally released on the Japanese Alfa label before being re-released on Enja Records. The Penguin Guide to Jazz states the set "Genus and Drummond do a marvellous job. and the two horns are well synchronised and brightly registered".

Nat Adderley Quintet - Good Company/Nat Adderley Quintet - Good Company. Nat Adderley Quintet - Good Company/Good Company. Nat Adderley Quintet - Good Company/Nat Adderley Quintet - Good Company. Nat Adderley Quintet - Good Company/cover. Nat Adderley Quintet - Good Company/covers/ - . 0. Nat Adderley Quintet - Good et 00. pg - . 1. 3.

Personnel: Nat Adderley - trumpet Antonio Hart - alto saxophone Rob Bargad - piano Walter Booker - bass Jimmy Cobb - drums. Recorded and mixed at Studio 44, Monster, The Netherlands. Recording Date: 20 and 21 June, 1994. TRACK 03 AUDIO TITLE "Corcovado" PERFORMER "Nat Adderley Quintet" INDEX 01 15:40:35 TRACK 04 AUDIO TITLE "Rob's New Tune" PERFORMER "Nat Adderley Quintet" INDEX 00 22:57:50 INDEX 01 22:59:43 TRACK 05 AUDIO TITLE "My Romance" PERFORMER "Nat Adderley Quintet" INDEX 00 31:12:48 INDEX 01 31:14:05 TRACK 06 AUDIO TITLE "Unit Seven" PERFORMER. with explaining the album artist & album name.

There are individual features for altoist Antonio Hart (who ranges from Tranish on "Rwanda" to playing in a more Cannonball Adderley-oriented style on the older tunes) and the McCoy Tyner-inspired pianist Rob Bargad, so Adderley (who is showcased on "You Don't Know What Love Is") has opportunities to rest his chops. Among the other highlights are "Sermonette," "My Romance," and "Unit Seven. Personnel: Nat Adderley (trumpet); Antonio Hart (alto saxophone); Rob Bargad (piano); Walter Booker (bass); Jimmy Cobb (drums).

Слушайте Nat Adderley Quintet и скачивайте бесплатно в формате mp3 прямо сейчас, без кодов, смс и регистрации. Don't Get Around Much Anymore - Nat Adderley Quintet. Don't Get Around Much Anymore - Nat Adderley.

Tracklist Hide Credits

1 Rwanda
Written-By – Nat Adderley
10:24
2 Sermonette
Written-By – Julian Adderley*, Nat Adderley
5:13
3 Cocovado
Written-By – Antonio Carlos Jobim
7:16
4 Rob's New Tune
Written-By – Rob Bargad
8:12
5 My Romance
Written-By – Richard Rodgers/ Lorenz Hart*
5:30
6 Unit Seven
Written-By – Sam Jones
6:18
7 You Don't Know What Love Is
Written-By – Don Raye, Gene de Paul*
6:52
8 War Zone
Written-By – Rob Bargad
5:47

Companies, etc.

  • Phonographic Copyright (p) – Challenge Records Services B.V.
  • Copyright (c) – Challenge Records Services B.V.
  • Recorded At – Studio 44
  • Mixed At – Studio 44
  • Edited At – Baseline Music, Dordrecht

Credits

  • Alto Saxophone – Antonio Hart
  • Bass – Walter Booker
  • Drums – Jimmy Cobb
  • Mixed By – Max Bolleman
  • Piano – Rob Bargad
  • Producer – Hein Van de Geyn
  • Recorded By – Max Bolleman
  • Trumpet – Nat Adderley

Notes

Recording date: 20 and 21 June 1994

Track 3 "Cocovado" is a spelling mistake and should be "Corcovado".

Barcode and Other Identifiers

  • Barcode: 8712604700096