annuarioaudio
» » Pim Jacobs / Rogier Van Otterloo - Music All-In 2

Pim Jacobs / Rogier Van Otterloo - Music All-In 2 flac album

Pim Jacobs / Rogier Van Otterloo - Music All-In 2 flac album
Title:
Music All-In 2
Performer:
Style:
Easy Listening
Released:
FLAC album size:
1712 mb
Other formats:
DMF APE AHX MP1 DTS AUD WAV
Genre:
Rating:
4.2 ✪

Pim Jacobs, Rogier Van Otterloo - Music-All-In (Album). Pim Jacobs, Rogier Van Otterloo. Louis van Dijk & Pim Jacobs - It's A Lovely Way To Spend An Evening (Album). Pim Jacobs & Louis van Dijk.

Rogier Van Otterloo, Toots Thielemans - Jane's Theme Rogier Van Otterloo - Moord Met Geduld (Album Version) (Album Version) Rogier van Otterloo - Requiem Voor Een Dooie Mus Pim Jacobs Rogie 1u. The largest mobile music archive. Rogier Van Otterloo Requiem Voor Een Dooie Mus (Album Version) (Album Version).

Rogier van Otterloo" INDEX 01 00:00:00 TRACK 02 AUDIO TITLE "Waltz for Debby" PERFORMER "Pim Jacobs & Rogier van Otterloo" INDEX 00 02:35:25 INDEX 01 02:37:72 TRACK 03 AUDIO TITLE "Sophisticated Lady" PERFORMER "Pim Jacobs & Rogier van Otterloo" INDEX 00 05:45:60 INDEX 01 05:48:72 TRACK 04 AUDIO TITLE "Wave" PERFORMER "Pim Jacobs & Rogier van. Otterloo" INDEX 00 10:17:55 INDEX 01 10:20:00 TRACK 05 AUDIO TITLE "I've Grown Accustomed to Her Face" PERFORMER "Pim Jacobs & Rogier van Otterloo". Laura 06. Music-All-In 'Tune' 07. Stardust 08. September Song 09. All the Things You Are 10. Over the Rainbow 11. Someday My Prince Will Come 12.

Shop 3 records for sale for album Collage by Pim Jacobs & Rogier Van Otterloo on CDandLP in Vinyl and CD format.

Rogier van Otterloo (1941-1988) - componist, arrangeur, chef dirigent Metropole Orkest. Tim ter Bals - from the album Dutch Jazz Giants, not for profit only for hobby and education about Mark Murphy and Rogier van Otterloo. 30 January ·. All Conductors of Eurovision (ww. ndtheconductoris. eu) ropole Orchestra from 1980 to his untimely death.

Pim Jacobs Rogier Van Otterloo. But Not for Me. Pim Jacobs. Trio Pim Jacobs/Rita Reys. Macabre (Extended Mix).

Louis van Dijk & Rogier van Otterloo. Both Sides Now. 5:01. Louis van Dijk & Rogier van Otterloo. Thijs van Leer & Louis van Dijk & Rogier van Otterloo. Heer Jezus heeft een hofken. Merck toch hoe sterck. Pim Jacobs Rogier Van Otterloo. Someday My Prince Will Come. Rita Reys & Rogier van Otterloo

Tracklist

A1 How High The Moon
A2 Tenderly
A3 All The Things You Are
A4 Laura
A5 Alice In Wonderland
A6 September Song
B1 Ack, Värmeland Du Sköna
B2 Over The Rainbow
B3 Meditation
B4 Stardust
B5 Stella By Starlight

Companies, etc.

  • Recorded At – CTS Studios

Credits

  • Arranged By, Leader [Orchestra] – Rogier Van Otterloo
  • Bass – Rob Langereis
  • Drums – Louis De Lussonnet
  • Engineer – Richard Lowzey*
  • Liner Notes – Ralph Inbar
  • Mixed By – John Richard, Joop Niggebrugge
  • Piano – Pim Jacobs
  • Producer – Ruud Jacobs
  • Supervised By – John J. Vis

Barcode and Other Identifiers

  • Rights Society: STEMRA
  • Rights Society: CHAPPELL