annuarioaudio
» » Christian Buehner & Helge Schroeder - Nightflight

Christian Buehner & Helge Schroeder - Nightflight flac album

Christian Buehner & Helge Schroeder - Nightflight flac album
Title:
Nightflight
Performer:
Christian Buehner
Style:
New Age, Ambient
Released:
Country:
FLAC album size:
1450 mb
Other formats:
XM AUD MMF FLAC MP1 DMF DXD
Genre:
Rating:
4.5 ✪

Producer, Arranged By, Engineer, Vocals, Guitar, Piano, Drums, Percussion, Other, Written-By – Christian Buehner, Helge Schroeder. Recorded in 1986 at Pyramid Studios, Munich Digitally Mastered in 1987 at Digital Magnetics, Hollywood, CA.

Producer, Arranged By, Engineer, Vocals, Guitar, Piano, Drums, Percussion, Other – Christian Buehner. Recorded in 1986 at Pyramid Studios, Munich. Other Versions (3 of 3) View All. Cat.

Christian Buehner, Helge Schroeder. CD - Beyond/Allegiance

Karl Schaffner & Lothar Grimm - Birds of Passage. Karl Schaffner · Traumhaus. Christian Buehner & Helge Schroeder- Nightflight- Icarus.

Christian Buehner & Helge Schroeder, Nightflight Жанр: New Age Страна-производитель диска: US Год издания диска: 1987 Тип издания: CD, Album Издатель (лейбл): Beyond Каталожный номер: BY 10102 Аудиокодек: FLAC . lac) Тип рипа: tracks+. Schroeder" INDEX 01 00:00:00 FILE "03 - O. av" WAVE TRACK 03 AUDIO TITLE "Om" PERFORMER "Christian Buehner & Helge Schroeder" INDEX 01 00:00:00 FILE "04 - Deja V. av" WAVE TRACK 04 AUDIO TITLE "Deja Vu" PERFORMER "Christian Buehner & Helge Schroeder" INDEX 01 00:00:00 FILE "05 - Nightflight. wav" WAVE TRACK 05 AUDIO TITLE "Nightflight" PERFORMER "Christian Buehner & Helge Schroeder".

Find the song lyrics for Christian Buehner - Top Tracks. Christian Buehner & Helge Schroeder - Sun Dance. Suzanne Doucet & Christian Buehner "Shiva's Dance" The Microcosm Light In The Attic Records.

On this page you can not listen to mp3 music free or download album or mp3 track to your PC, phone or tablet. All materials are provided for educational purposes. Released at: This album was released on the label Musicolor (2) (catalog number CD 100 70 402). This album was released in 1989-10-00 year. Format of the release is. CD, Album. The album included the following session artists: Composed By, Producer, Arranged By, Performer, Engineer. Composed By, Producer, Arranged By, Performer, Engineer.

Check Christian Buehner: Music, Suzanne Doucet, Helge Schroeder, Julien, New Age, Album, Dance, Satsang, Transmission, Nightflight, Healing Flow, Songs. Watch videos & listen free to Christian Buehner & Helge Schroeder: Sun Dance, Sun Dance (Christian Buehner & Helge Schroeder) & more.

Tracklist

1 Sun Dance 13:40
2 Icarus 11:40
3 Om 7:35
4 Deja Vu 8:05
5 Nightflight 16:48
6 Light Moon 8:02

Credits

  • Engineer – Ted Hall
  • Executive Producer – Suzanne Doucet
  • Producer, Arranged By, Engineer, Vocals, Guitar, Piano [W Piano], Drums, Percussion, Other [Dx-7, Jupiter 8, Ppg-wave, Apple Macintosh, Akai Sampler S-900, Water And Birds] – Christian Buehner*

Notes

Recorded in 1986 at Pyramid Studios, Munich
Digitally Mastered in 1987 at Digital Magnetics, Hollywood, CA

℗ 1987 Beyond
Manufactured & Distributed by Allegiance Records, Ltd.
© 1987 Only new age music, BMI
© 1987 Pyramid Music, Munich, West Germany

Barcode and Other Identifiers

  • Barcode: 0 2239-72891-2 7

Other versions

Category Artist Title (Format) Label Category Country Year
none Christian Bühner, Helge Schroeder Christian Bühner, Helge Schroeder - Nightflight ‎(Cass, Album) Not on label none US 1986
CD 100 70 402 Christian Buehner* & Helge Schroeder Christian Buehner* & Helge Schroeder - Nightflight ‎(CD, Album) Musicolor CD 100 70 402 Germany 1989
BY 10102, CDP 72891 Christian Buehner* & Helge Schroeder Christian Buehner* & Helge Schroeder - Nightflight ‎(CD, Album) Beyond , Beyond BY 10102, CDP 72891 US 1987