annuarioaudio
» » Pablo Cruise - Part Of The Game

Pablo Cruise - Part Of The Game flac album

Pablo Cruise - Part Of The Game flac album
Title:
Part Of The Game
Performer:
Style:
Pop Rock, Soft Rock
Released:
Country:
FLAC album size:
1520 mb
Other formats:
MMF FLAC DMF FLAC AIFF AUD XM
Genre:
Rating:
4.1 ✪

Part of the Game is the fifth album by the California soft rock group Pablo Cruise. The album marked a decline in the band's popularity, as it managed only to reach in the United States. One single was released from the album: "I Want You Tonight", reaching in the United States. The band called the album a transition into a blend of disco to take advantage of the extreme popularity of that type of music at the time. Side One. "Part Of The Game" (Jenkins, Lerios, Allee Willis, Day) - 3:44.

English Deutsch Español Français Italiano 日本語 Português (Brasil) Русский.

Part of the Game Tracklist. 1. Part of the Game Lyrics. Part of the Game Q&A. More Pablo Cruise albums. Show all albums by Pablo Cruise.

Album by Pablo Cruise. When Love Is At Your Door. Tell Me That You Love Me. Lonely Nights. How Many Tears? For Another Town. MusicBrainz: Part of the Game.

Part of the Game is the fifth album by the California soft rock group Pablo Cruise. One single was released from the album: I Want You Tonight, reaching in the United States. Album descriptions on Last. Feel free to contribute! All user-contributed.

This 1979 album is Pablo Cruise's finest, featuring their signature sound while more musically varied than any of their other releases. At 8 tracks total, I only wish they could have augmented it with a couple more. Even in the days of vinyl, that wouldn't necessarily have exceeded the medium's capacity. It's too bad that A&M didn't promote the record better when it was originally released. They apparently gave up after the mildly successful disco-pandering "I Want You Tonight," while there was much worthier material begging.

Redirected from John Pierce (musician)). Pablo Cruise is an American pop/rock band from San Francisco currently composed of David Jenkins (guitar and vocals), Cory Lerios (keyboards and vocals), Steve Price (drums) and Larry Antonino (bass and vocals). Formed in 1973, the band released eight studio albums over the next decade, during which time five singles reached the top 25 of the Billboard Hot 100 chart.

Tell Me That You Love Me. 3:44. Zero To Sixty In Five.

Part of the Game (1979). Album by Pablo Cruise.

Tracklist

1 Part Of The Game 3:36
2 I Want You Tonight 5:29
3 When Love Is At Your Door 4:35
4 Givin' It Away 5:16
5 Tell Me That You Love Me 4:50
6 Lonely Nights 5:09
7 How Many Tears? 6:05
8 For Another Town 4:25

Companies, etc.

  • Phonographic Copyright (p) – A&M Records, Inc.
  • Copyright (c) – A&M Records, Inc.
  • Manufactured By – Polydor K.K.

Notes

℗© 1979 A&M Records, Inc.

Barcode and Other Identifiers

  • Barcode: 4988005159649
  • Rights Society: JASRAC
  • Other (Price): ¥1.800

Other versions

Category Artist Title (Format) Label Category Country Year
SP-3712 Pablo Cruise Part Of The Game ‎(LP, Album) A&M Records SP-3712 Canada 1979
AMLK 63712 Pablo Cruise Part Of The Game ‎(LP, Album) A&M Records AMLK 63712 Netherlands 1979
AMP-6066 Pablo Cruise Part Of The Game ‎(LP, Album) A&M Records AMP-6066 Japan 1979
L 37049 Pablo Cruise Part Of The Game ‎(LP, Album) A&M Records L 37049 Australia 1979
AMLH 63712 Pablo Cruise Part Of The Game ‎(LP, Album) A&M Records AMLH 63712 South Africa 1979


Reviews:
  • Zainian
foobar2000 1.3.17 / Dynamic Range Meter 1.1.1log date: 2019-03-07 22:42:54--------------------------------------------------------------------------------Analyzed: Pablo Cruise / Part Of The Game [JP 1995 CD]--------------------------------------------------------------------------------DR Peak RMS Duration Track--------------------------------------------------------------------------------DR14 0.00 dB -15.87 dB 3:44 01-Part Of The GameDR16 0.00 dB -17.27 dB 5:31 02-I Want You TonightDR16 0.00 dB -17.31 dB 4:32 03-When Love Is At Your DoorDR16 0.00 dB -18.74 dB 5:18 04-Givin' It AwayDR15 0.00 dB -18.03 dB 4:55 05-Tell Me That You Love MeDR14 0.00 dB -18.08 dB 5:23 06-Lonely NightsDR14 0.00 dB -17.07 dB 6:15 07-How Many Tears?DR15 -0.66 dB -18.68 dB 4:28 08-For Another Town--------------------------------------------------------------------------------Number of tracks: 8Official DR value: DR15Samplerate: 44100 HzChannels: 2Bits per sample: 16Bitrate: 820 kbpsCodec: ALAC================================================================================